загрузка...

Тень врага (2017) WEB-DL 1080p | iTunes

Фильмы высокого разрешения в формате HD
Сообщение
Автор
Торрент [ Статус: Проверен ] Скачать Сидеров Личеров Размер
TEN_VRAGA_2017_WEB-DL_1080p.mkv.torrent
Подробнее
Скачать торрент Скачать через магнет ссылку 225 25 3.25 ГБ
Аватара пользователя
admin
Администратор
Администратор
Сообщения: 9008
Зарегистрирован: 13 дек 2013, 01:15
Благодарил (а): 24 раза
Поблагодарили: 1 раз
Контактная информация:

Тень врага (2017) WEB-DL 1080p | iTunes

#1 Сообщение admin » 04 ноя 2019, 15:31

Год выпуска: 2017
Жанр: Военный, история
Режиссёр: Игорь Сеньков
В ролях: Евгений Ивкович, Игорь Сеньков, Павел Савельев, Игорь Денисов, Андрей Попков, Артем Быков

Описание:
1943 год, оккупированная немецкими войсками территория. Советский разведчик получает задание пробраться в тыл врага и добыть секретные документы. Его задачу усложняет то, что выполнить это задание он должен один и то, что на его след нападает коварный и опасный противник в лице капитана контрразведки Абвера, который считает делом чести лично изловить русского диверсанта.



Страна: Беларусь
Студия: Беларусьфильм
Продолжительность: 01:29:19
Язык: Русский

Файл
Формат: MKV
Качество: WEB-DL 1080p
Видео: 1914x1080 (16:9), 25 fps, MPEG-4 AVC ~ 5097 Кbps avg, 0.099 bit/pixel
Аудио: AAC-LC, 48 kHz, 2 ch, ~116.00 kbps avg | русский | iTunes

Субтитры: Отсутствуют

Общее
Уникальный идентификатор : 316212400660890971901866615108325336075 (0xEDE44B0A0A133512028A82DCDE8BE40B)
Полное имя : G:TorrentsFilesTEN_VRAGA (2017) WEB-DL 1080p.mkv
Формат : Matroska
Версия формата : Version 4 / Version 2
Размер файла : 3,25 Гбайт
Продолжительность : 1 ч. 29 м.
Общий поток : 5215 Кбит/сек
Название фильма : TEN_VRAGA (2017) WEB-DL 1080p-KAZTORKA
Дата кодирования : UTC 2019-11-03 19:28:23
Программа кодирования : mkvmerge v38.0.0 ('The Silent Type') 64-bit
Библиотека кодирования : libebml v1.3.9 + libmatroska v1.5.2
Обложка : Yes
Attachments : cover.jpg

Видео
Идентификатор : 1
Формат : AVC
Формат/Информация : Advanced Video Codec
Профиль формата : High@L4
Настройки формата : CABAC / 4 Ref Frames
Параметр CABAC формата : Да
Параметр RefFrames формата : 4 кадра
Идентификатор кодека : V_MPEG4/ISO/AVC
Продолжительность : 1 ч. 29 м.
Битрейт : 5097 Кбит/сек
Ширина : 1914 пикселей
Высота : 1080 пикселей
Соотношение сторон : 16:9
Режим частоты кадров : Постоянный
Частота кадров : 25,000 кадров/сек
Цветовое пространство : YUV
Субдискретизация насыщенности : 4:2:0
Битовая глубина : 8 бит
Тип развёртки : Прогрессивная
Бит/(Пиксели*Кадры) : 0.099
Размер потока : 3,18 Гбайт (98%)
Заголовок : TEN_VRAGA (2017) WEB-DL 1080p-KAZTORKA
Язык : English
Default : Да
Forced : Нет
Цветовой диапазон : Limited
Основные цвета : BT.709
Характеристики трансфера : BT.709
Коэффициенты матрицы : BT.709

Аудио
Идентификатор : 2
Формат : AAC
Формат/Информация : Advanced Audio Codec
Профиль формата : LC
Идентификатор кодека : A_AAC-2
Продолжительность : 1 ч. 29 м.
Битрейт : 116 Кбит/сек
Каналы : 2 канала
Расположение каналов : Front: L R
Частота : 48,0 КГц
Частота кадров : 46,875 кадров/сек (1024 SPF)
Метод сжатия : С потерями
Задержка видео : -40 мс.
Размер потока : 74,3 Мбайт (2%)
Заголовок : iTunes | TEN_VRAGA (2017) WEB-DL 1080p-KAZTORKA
Язык : Russian
Default : Да
Forced : Нет

Меню
00:00:00.000 : en:Глава 1
00:06:18.320 : en:Глава 2
00:12:55.440 : en:Глава 3
00:19:21.320 : en:Глава 4
00:26:27.919 : en:Глава 5
00:30:54.119 : en:Глава 6
00:41:52.799 : en:Глава 7
00:48:52.918 : en:Глава 8
00:56:28.117 : en:Глава 9
01:03:42.517 : en:Глава 10
01:12:08.997 : en:Глава 11
01:20:40.997 : en:Глава 12

Как скачать!

  • Похожие темы
    Ответы
    Просмотры
    Последнее сообщение

Вернуться в «Фильмы HD»

Кто сейчас на конференции

Сейчас этот форум просматривают: нет зарегистрированных пользователей и 5 гостей