загрузка...

Окровавленные холмы / The Hills Run Red (2009) WEB-DL 1080p

Фильмы высокого разрешения в формате HD
Сообщение
Автор
Торрент [ Статус: Проверен ] Скачать Сидеров Личеров Размер
The.Hills.Run.Red.2009.WEB-DL.1080p.mkv.torrent
Подробнее
Скачать торрент Скачать через магнет ссылку 16 4 3.14 ГБ
Аватара пользователя
admin
Администратор
Администратор
Сообщения: 9001
Зарегистрирован: 13 дек 2013, 01:15
Благодарил (а): 24 раза
Поблагодарили: 1 раз
Контактная информация:

Окровавленные холмы / The Hills Run Red (2009) WEB-DL 1080p

#1 Сообщение admin » 04 ноя 2019, 16:38

Год выпуска: 2009
Жанр: Ужасы, триллер
Режиссер: Дэйв Паркер
В ролях: Софи Монк, Тэд Хилдженбринк, Уильям Сэдлер, Джанет Монтгомери, Алекс Уиндэм, Ивэн Бэйли, Данко Йорданов, Майк Страуб, Христо Митцков, Георгий Дмитров

О фильме: Главный герой фильма, представляет собой преданного поклонника фильмов ужасов. Молодой человек готов ежедневно наслаждаться просмотром жутких кинолент. Один из подобных проектов особенно впечатлил героя и после просмотра он решил отправиться в путь, чтобы найти создателей киношедевра. Отыскав своих кумиров, юноша пока даже не догадывается, что его любимый фильм еще не закончен, а все увиденные на экране сцены на самом деле происходили не с участием актеров, а с обыкновенными людьми, которые были убиты. Теперь он сам становится жертвой, угодившей в опасную ловушку, а его смерть может быть навсегда запечатлена на пленке.



Страна: США
Студия: Dark Castle Entertainment
Продолжительность: 01:21:30
Перевод: Дублированный, любительский двухголосый

Файл
Качество: WEB-DL 1080p
Контейнер: MKV
Видео: MPEG-4 AVC, 1920x802, 4451 Kbps, 23.976 fps
Аудио 1: Russian: AC3, 2 ch, 192 kbps, 48.0 KHz - DUB, TV1000
Аудио 2: Russian: AC3, 6 ch, 384 kbps, 48.0 KHz - DVO, Электричка
Аудио 3: English: AC3, 6 ch, 384 kbps, 48.0 KHz - Оригинал
Субтитры: Английские

General
Unique ID : 188429671768805861174171170729862290719 (0x8DC23C171296C72BAF3ED5EBC07ADD1F)
Complete name : The.Hills.Run.Red.2009.WEB-DL.1080p.mkv
Format : Matroska
Format version : Version 2
File size : 3.14 GiB
Duration : 1 h 21 min
Overall bit rate : 5 521 kb/s
Encoded date : UTC 2019-11-04 12:01:39
Writing application : mkvmerge v5.8.0 ('No Sleep / Pillow') built on Sep 2 2012 15:37:04
Writing library : libebml v1.2.3 + libmatroska v1.3.0

Video
ID : 1
Format : AVC
Format/Info : Advanced Video Codec
Format profile : High@L4
Format settings, CABAC : Yes
Format settings, RefFrames : 5 frames
Codec ID : V_MPEG4/ISO/AVC
Duration : 1 h 21 min
Bit rate : 4 451 kb/s
Width : 1 920 pixels
Height : 802 pixels
Display aspect ratio : 2.40:1
Frame rate mode : Constant
Frame rate : 23.976 FPS
Color space : YUV
Chroma subsampling : 4:2:0
Bit depth : 8 bits
Scan type : Progressive
Bits/(Pixel*Frame) : 0.121
Stream size : 2.53 GiB (81%)
Language : English
Default : Yes
Forced : No
Color range : Limited
Color primaries : BT.709
Transfer characteristics : BT.709
Matrix coefficients : BT.709

Audio #1
ID : 2
Format : AC-3
Format/Info : Audio Coding 3
Format settings, Endianness : Big
Codec ID : A_AC3
Duration : 1 h 21 min
Bit rate mode : Constant
Bit rate : 192 kb/s
Channel(s) : 2 channels
Channel positions : Front: L R
Sampling rate : 48.0 kHz
Frame rate : 31.250 FPS (1536 SPF)
Bit depth : 16 bits
Compression mode : Lossy
Stream size : 112 MiB (3%)
Title : DUB, TV1000
Language : Russian
Service kind : Complete Main
Default : Yes
Forced : No

Audio #2
ID : 3
Format : AC-3
Format/Info : Audio Coding 3
Format settings, Endianness : Big
Codec ID : A_AC3
Duration : 1 h 21 min
Bit rate mode : Constant
Bit rate : 384 kb/s
Channel(s) : 6 channels
Channel positions : Front: L C R, Side: L R, LFE
Sampling rate : 48.0 kHz
Frame rate : 31.250 FPS (1536 SPF)
Bit depth : 16 bits
Compression mode : Lossy
Stream size : 224 MiB (7%)
Title : DVO, Электричка
Language : Russian
Service kind : Complete Main
Default : No
Forced : No

Audio #3
ID : 4
Format : AC-3
Format/Info : Audio Coding 3
Format settings, Endianness : Big
Codec ID : A_AC3
Duration : 1 h 21 min
Bit rate mode : Constant
Bit rate : 384 kb/s
Channel(s) : 6 channels
Channel positions : Front: L C R, Side: L R, LFE
Sampling rate : 48.0 kHz
Frame rate : 31.250 FPS (1536 SPF)
Bit depth : 16 bits
Compression mode : Lossy
Stream size : 224 MiB (7%)
Title : Original
Language : English
Service kind : Complete Main
Default : No
Forced : No

Text
ID : 5
Format : UTF-8
Codec ID : S_TEXT/UTF8
Codec ID/Info : UTF-8 Plain Text
Title : Full
Language : English
Default : No
Forced : No

Menu
00:00:00.000 : en:Birth of a madman (Credits).
00:04:36.000 : en:Obsessions.
00:08:02.000 : en:Like you're enjoying it.
00:12:38.000 : en:Not just a fan.
00:17:04.000 : en:I'll give you serious.
00:19:46.000 : en:Not-so-plain sight.
00:23:28.000 : en:Both real and pretend.
00:28:03.000 : en:The tree scene.
00:33:50.000 : en:No one but me.
00:39:05.000 : en:Face to Babyface.
00:42:38.000 : en:Shot in a flash.
00:46:31.000 : en:Still shooting.
00:50:42.000 : en:Fetch.
00:54:49.000 : en:For the good of the film.
00:57:57.000 : en:Scary reality.
01:04:20.000 : en:Family atrocities.
01:07:46.000 : en:Not how it ends.
01:10:04.000 : en:Captive audience.
01:15:10.000 : en:Hushabye End Credits.

Как скачать!

  • Похожие темы
    Ответы
    Просмотры
    Последнее сообщение

Вернуться в «Фильмы HD»

Кто сейчас на конференции

Сейчас этот форум просматривают: нет зарегистрированных пользователей и 10 гостей