загрузка...

Оленья кожа / Le daim (2018) BDRip 1080p | iTunes

Фильмы высокого разрешения в формате HD
Сообщение
Автор
Торрент [ Статус: Проверен ] Скачать Сидеров Личеров Размер
Le.Daim.2019.BDRip.1080p.mkv.torrent
Подробнее
Скачать торрент Скачать через магнет ссылку 454 177 5.67 ГБ
Аватара пользователя
admin
Администратор
Администратор
Сообщения: 9021
Зарегистрирован: 13 дек 2013, 01:15
Благодарил (а): 24 раза
Поблагодарили: 1 раз
Контактная информация:

Оленья кожа / Le daim (2018) BDRip 1080p | iTunes

#1 Сообщение admin » 07 ноя 2019, 20:24

Год выпуска: 2019
Жанр: Драма, комедия
Режиссер: Квентин Дюпьё
В ролях: Жан Дюжарден, Адель Энель, Альберт Дельпи, Корали Руссье, Лорен Николас, Мари Бюнель, Пьер Гомме, Кэролайн Питти, Стефан Жобер

О фильме:
Мужчина попадает под влияния своей новой куртки из оленьей кожи, которая заставляет его тратить все сбережения и совершать преступления.



Страна: Франция
Студия: Arte France, arte France Cinéma
Продолжительность: 01:16:41
Перевод: Дублированный | iTunes

Качество: BDRip 1080p
Видео: MPEG-4 AVC, 1920x1040, 8694 Кbit/s, 23.976 fps
Аудио #01: 48 kHz, AC3, 5.1, 384 Kbps | iTunes | RUS |
Аудио #02: 48 kHz, DTS, 5.1, 1510 Kbps | Оригинал | FRE |
Субтитры: Нет

General
Unique ID : 317776343283970392088498059769957329274 (0xEF117F5D220FD4BAA7774D2B8298297A)
Complete name : Le.Daim.2019.BDRip.1080p.mkv
Format : Matroska
Format version : Version 4
File size : 5.67 GiB
Duration : 1 h 16 min
Overall bit rate : 10.6 Mb/s
Movie name : Le Daim 2019
Encoded date : UTC 2019-11-06 21:44:43
Writing application : mkvmerge v22.0.0 ('At The End Of The World') 64-bit
Writing library : libebml v1.3.5 + libmatroska v1.4.8

Video
ID : 1
Format : AVC
Format/Info : Advanced Video Codec
Format profile : High@L4.1
Format settings : CABAC / 5 Ref Frames
Format settings, CABAC : Yes
Format settings, Reference : 5 frames
Codec ID : V_MPEG4/ISO/AVC
Duration : 1 h 16 min
Bit rate : 8 694 kb/s
Width : 1 920 pixels
Height : 1 040 pixels
Display aspect ratio : 1.85:1
Frame rate mode : Constant
Frame rate : 23.976 (23976/1000) FPS
Color space : YUV
Chroma subsampling : 4:2:0
Bit depth : 8 bits
Scan type : Progressive
Bits/(Pixel*Frame) : 0.182
Stream size : 4.65 GiB (82%)
Title : UTT
Writing library : x264 core 155 r2901 7d0ff22
Encoding settings : cabac=1 / ref=5 / deblock=1:-3:-3 / analyse=0x3:0x113 / me=umh / subme=10 / psy=1 / psy_rd=1.00:0.00 / mixed_ref=1 / me_range=24 / chroma_me=1 / trellis=2 / 8x8dct=1 / cqm=0 / deadzone=21,11 / fast_pskip=1 / chroma_qp_offset=-2 / threads=24 / lookahead_threads=4 / sliced_threads=0 / nr=0 / decimate=1 / interlaced=0 / bluray_compat=0 / constrained_intra=0 / bframes=8 / b_pyramid=2 / b_adapt=2 / b_bias=0 / direct=3 / weightb=1 / open_gop=0 / weightp=2 / keyint=240 / keyint_min=24 / scenecut=40 / intra_refresh=0 / rc_lookahead=60 / rc=2pass / mbtree=1 / bitrate=8694 / ratetol=1.0 / qcomp=0.60 / qpmin=0 / qpmax=69 / qpstep=4 / cplxblur=20.0 / qblur=0.5 / ip_ratio=1.40 / aq=1:1.00
Language : French
Default : Yes
Forced : No
Color range : Limited
Color primaries : BT.709
Transfer characteristics : BT.709
Matrix coefficients : BT.709

Audio #1
ID : 2
Format : AC-3
Format/Info : Audio Coding 3
Commercial name : Dolby Digital
Codec ID : A_AC3
Duration : 1 h 16 min
Bit rate mode : Constant
Bit rate : 384 kb/s
Channel(s) : 6 channels
Channel layout : L R C LFE Ls Rs
Sampling rate : 48.0 kHz
Frame rate : 31.250 FPS (1536 SPF)
Bit depth : 16 bits
Compression mode : Lossy
Stream size : 211 MiB (4%)
Title : iTunes
Language : Russian
Service kind : Complete Main
Default : Yes
Forced : Yes

Audio #2
ID : 3
Format : DTS
Format/Info : Digital Theater Systems
Codec ID : A_DTS
Duration : 1 h 16 min
Bit rate mode : Constant
Bit rate : 1 509 kb/s
Channel(s) : 6 channels
Channel layout : C L R Ls Rs LFE
Sampling rate : 48.0 kHz
Frame rate : 93.750 FPS (512 SPF)
Bit depth : 24 bits
Compression mode : Lossy
Stream size : 828 MiB (14%)
Title : Original
Language : French
Default : No
Forced : No

Menu
00:00:00.000 : fr:(01)00:00:00:000
00:09:15.596 : fr:(02)00:09:15:596
00:19:58.655 : fr:(03)00:19:58:655
00:29:20.550 : fr:(04)00:29:20:550
00:38:37.648 : fr:(05)00:38:37:648
00:49:31.051 : fr:(06)00:49:31:051
00:58:05.523 : fr:(07)00:58:05:523
01:06:51.632 : fr:(08)01:06:51:632
01:12:27.760 : fr:(09)01:12:27:760

Как скачать!

  • Похожие темы
    Ответы
    Просмотры
    Последнее сообщение

Вернуться в «Фильмы HD»

Кто сейчас на конференции

Сейчас этот форум просматривают: нет зарегистрированных пользователей и 5 гостей