загрузка...

Элефант (2019) WEB-DL 1080p | iTunes

Фильмы высокого разрешения в формате HD
Сообщение
Автор
Торрент [ Статус: Проверен ] Скачать Сидеров Личеров Размер
Elefant_.torrent
Подробнее
Скачать торрент Скачать через магнет ссылку 884 342 2.9 ГБ
Аватара пользователя
admin
Администратор
Администратор
Сообщения: 9008
Зарегистрирован: 13 дек 2013, 01:15
Благодарил (а): 24 раза
Поблагодарили: 1 раз
Контактная информация:

Элефант (2019) WEB-DL 1080p | iTunes

#1 Сообщение admin » 06 ноя 2019, 12:45

Страна: Россия
Производство: 58,5 продакшн, Кинокомпания CTB
Жанр: комедия
Год выпуска: 2019
Продолжительность: 01:15:45

Режиссер: Алексей Красовский
В ролях: Алексей Гуськов, Полина Агуреева, Евгения Дмитриева, Ян Цапник, Фредерик Бегбедер, Юлия Топольницкая, Игорь Хрипунов

Описание: У добрых книжек про Слона Мишку был очень злобный автор. И, даже когда Валентину Шубину из-за болезни пересадили новое сердце, он предпочёл, чтобы всё прочее оставалось старым. Шубин давно развёлся с женой и поссорился с дочерью, ради которой когда-то писал свои истории. Но писать продолжение он не хочет, тем более, в компании навязанной ему приставучей сиделки. Хуже которой лишь то, что теперь у Шубина в самый неподходящий момент непроизвольно текут слёзы…



Перевод: не требуется (оригинал) | iTunes
Субтитры: нет

Качество: WEB-DL 1080p
Формат: МКV
Видео кодек: AVC
Аудио кодек: АС3
Видео: 1920x806 (16:9), 25.000 fps, MPEG-4 AVC ~5 095 kbps avg
Аудио: 48.0 kHz, AC3 Dolby Digital, 3/2 (L,C,R,l,r) + LFE ch, ~384 kbps

General
Уникальный идентификатор : 247063449360422686949621632576520597765 (0xB9DEB084F3AA5F28B9D0B8DCE4C63105)
Полное имя : Elefant.2019.WEB-DL.(1080p).Getty.mkv
Формат : Matroska
Версия формата : Version 4
Размер файла : 2,90 Гбайт
Продолжительность : 1 ч. 15 м.
Общий поток : 5481 Кбит/сек
Название фильма : Elefant.2019.WEB-DL.(1080p).Getty
Дата кодирования : UTC 2019-11-06 00:34:16
Программа кодирования : mkvmerge v7.8.0 ('River Man') 32bit built on Mar 27 2015 16:18:02
Библиотека кодирования : libebml v1.3.1 + libmatroska v1.4.2

Видео
Идентификатор : 1
Формат : AVC
Формат/Информация : Advanced Video Codec
Профиль формата : High@L4
Настройки формата : CABAC / 4 Ref Frames
Параметр CABAC формата : Да
Параметр RefFrames формата : 4 кадра
Идентификатор кодека : V_MPEG4/ISO/AVC
Продолжительность : 1 ч. 15 м.
Битрейт : 5095 Кбит/сек
Ширина : 1920 пикселей
Высота : 806 пикселей
Соотношение сторон : 2,40:1
Режим частоты кадров : Постоянный
Частота кадров : 25,000 кадров/сек
Цветовое пространство : YUV
Субдискретизация насыщенности : 4:2:0
Битовая глубина : 8 бит
Тип развёртки : Прогрессивная
Бит/(Пиксели*Кадры) : 0.132
Размер потока : 2,70 Гбайт (93%)
Default : Да
Forced : Нет

Аудио
Идентификатор : 2
Формат : AC-3
Формат/Информация : Audio Coding 3
Коммерческое название : Dolby Digital
Идентификатор кодека : A_AC3
Продолжительность : 1 ч. 15 м.
Вид битрейта : Постоянный
Битрейт : 384 Кбит/сек
Каналы : 6 каналов
ChannelLayout : L R C LFE Ls Rs
Частота : 48,0 КГц
Частота кадров : 31,250 кадров/сек (1536 SPF)
Битовая глубина : 16 бит
Метод сжатия : С потерями
Размер потока : 208 Мбайт (7%)
Default : Да
Forced : Нет

Как скачать!

  • Похожие темы
    Ответы
    Просмотры
    Последнее сообщение

Вернуться в «Фильмы HD»

Кто сейчас на конференции

Сейчас этот форум просматривают: нет зарегистрированных пользователей и 5 гостей