загрузка...

Крепкий орешек: Квадрология / Die Hard: Quadrilogy (1988-2007) BDRip 1080p

Фильмы высокого разрешения в формате HD
Сообщение
Автор
Торрент [ Статус: Проверен ] Скачать Сидеров Личеров Размер
Die.Hard.Quadrilogy.1988-2007.x264.BDRip.1080p.torrent
Подробнее
Скачать торрент Скачать через магнет ссылку 17 2 46.02 ГБ
Аватара пользователя
Hawk
Аплоадер
Аплоадер
Сообщения: 133
Возраст: 39
Зарегистрирован: 30 дек 2014, 12:57
Откуда: Россия
Контактная информация:

Крепкий орешек: Квадрология / Die Hard: Quadrilogy (1988-2007) BDRip 1080p

#1 Сообщение Hawk » 01 янв 2015, 18:13

Жанр: Боевик, триллер, криминал
Год выпуска: 1988 / 1990 / 1995 / 2007
Продолжительность: 02:12:11 / 02:03:23 / 02:08:32 / 02:08:42
Режиссёр: Джон МакТирнан, Ренни Харлин, Лен Уайзман

[spoiler="Крепкий орешек / Die Hard (1988) BDRip 1080p"]

Информация о фильме
Название: Крепкий орешек
Оригинальное название: Die Hard
Год выхода: 1988
Жанр: Боевик, триллер
Режиссер: Джон МакТирнан
В ролях: Брюс Уиллис, Алан Рикман, Бонни Беделиа, Реджинальд ВелДжонсон, Пол Глисон, Уильям Этертон, Харт Бокнер, Джеймс Шигета, Александр Годунов, Роберт Дави

О фильме:
В суперсовременном небоскребе Лос-Анджелеса полицейский Джон Макклейн ведет смертельную схватку с бандой политических террористов, взявших в заложники два десятка человек, в число которых попадает и его жена. Началось все с того, что парень приехал в город к жене, оказался на рождественском приеме, а кончилось настоящей войной…

[imdb]http://www.imdb.com/title/tt0095016/ [/imdb]
Страна: США
Студия: 20th Century Fox Film Corporation, Gordon Company, Silver Pictures
Продолжительность: 02:12:11
Перевод: Дублированный |Blu-ray CEE| + Профессиональный (двухголосый, закадровый) телеканал ОРТ + Оригинал

Файл
Кодек: x264
Качество: BDRip 1080p (источник: HDCLUB / Blu-ray Remux / 1080p)
Видео: 1920х812 (2.35:1), 10544 Kbps, 23.976 fps, 0.282 bit/pixel
Аудио #1: 48.0 kHz, AC3 Dolby Digital, 3/2 (L,C,R,l,r) + LFE ch, 640 kbps [Дубляж, Blu-ray CEE]
Аудио #2: 48.0 kHz, AC3 Dolby Digital, 3/2 (L,C,R,l,r) + LFE ch, 640 kbps [Двухголосый, телеканал ОРТ]
Аудио #3: 48.0 kHz, AC3 Dolby Digital, 3/2 (L,C,R,l,r) + LFE ch, 640 kbps [Оригинал, Английский]
Аудио #4: 48.0 kHz, AC3 Dolby Digital, 3/2 (L,C,R,l,r) + LFE ch, 640 kbps [Многоголосый, Киномания] Отдельно на disk.yandex.ru
Аудио #5: 48.0 kHz, AC3 Dolby Digital, 3/2 (L,C,R,l,r) + LFE ch, 640 kbps [Авторский, Д. Строев] Отдельно на disk.yandex.ru
Аудио #6: 48.0 kHz, AC3 Dolby Digital, 3/2 (L,C,R,l,r) + LFE ch, 640 kbps [Авторский, А. Гаврилов] Отдельно на disk.yandex.ru
Аудио #7: 48.0 kHz, AC3 Dolby Digital, 3/2 (L,C,R,l,r) + LFE ch, 640 kbps [Авторский, Ю. Живов] Отдельно на disk.yandex.ru
Субтитры: Русские, английские

Семпл



x264 / MediaInfox264 [info]: frame I:1104 Avg QP:16.78 size:174087
x264 [info]: frame P:36550 Avg QP:19.61 size: 89041
x264 [info]: frame B:152488 Avg QP:21.60 size: 45925


General
Unique ID : 195471476866758056202763767258537620375 (0x930E6FE2F9D9E861B76F3D19B61D7397)
Complete name : E:Die.Hard.Quadrilogy.1988-2007.x264.BDRip.1080pDie.Hard.1988.x264.BDRip.1080p.mkv
Format : Matroska
Format version : Version 2
File size : 11.5 GiB
Duration : 2h 12mn
Overall bit rate : 12.5 Mbps
Encoded date : UTC 2013-12-15 12:05:44
Writing application : mkvmerge v5.8.0 ('No Sleep / Pillow') built on Sep 2 2012 15:37:04
Writing library : libebml v1.2.3 + libmatroska v1.3.0

Video
ID : 1
Format : AVC
Format/Info : Advanced Video Codec
Format profile : High@L4.1
Format settings, CABAC : Yes
Format settings, ReFrames : 5 frames
Codec ID : V_MPEG4/ISO/AVC
Duration : 2h 12mn
Bit rate : 10.5 Mbps
Width : 1 920 pixels
Height : 812 pixels
Display aspect ratio : 2.35:1
Frame rate mode : Constant
Frame rate : 23.976 fps
Color space : YUV
Chroma subsampling : 4:2:0
Bit depth : 8 bits
Scan type : Progressive
Bits/(Pixel*Frame) : 0.282
Stream size : 9.51 GiB (83%)
Writing library : x264 core 140 r2377 1ca7bb9
Encoding settings : cabac=1 / ref=5 / deblock=1:-3:-3 / analyse=0x3:0x133 / me=tesa / subme=11 / psy=1 / psy_rd=1.00:0.04 / mixed_ref=1 / me_range=32 / chroma_me=1 / trellis=2 / 8x8dct=1 / cqm=0 / deadzone=21,11 / fast_pskip=0 / chroma_qp_offset=-3 / threads=12 / lookahead_threads=2 / sliced_threads=0 / nr=0 / decimate=0 / interlaced=0 / bluray_compat=0 / constrained_intra=0 / bframes=8 / b_pyramid=2 / b_adapt=2 / b_bias=0 / direct=3 / weightb=0 / open_gop=0 / weightp=2 / keyint=240 / keyint_min=23 / scenecut=40 / intra_refresh=0 / rc=2pass / mbtree=0 / bitrate=10544 / ratetol=1.0 / qcomp=0.60 / qpmin=0 / qpmax=69 / qpstep=4 / cplxblur=20.0 / qblur=0.5 / ip_ratio=1.40 / pb_ratio=1.30 / aq=1:1.00
Language : English
Default : Yes
Forced : No

Audio #1
ID : 2
Format : AC-3
Format/Info : Audio Coding 3
Mode extension : CM (complete main)
Format settings, Endianness : Big
Codec ID : A_AC3
Duration : 2h 12mn
Bit rate mode : Constant
Bit rate : 640 Kbps
Channel count : 6 channels
Channel positions : Front: L C R, Side: L R, LFE
Sampling rate : 48.0 KHz
Bit depth : 16 bits
Compression mode : Lossy
Stream size : 605 MiB (5%)
Title : Дубляж, Blu-ray CEE
Language : Russian
Default : Yes
Forced : No

Audio #2
ID : 3
Format : AC-3
Format/Info : Audio Coding 3
Mode extension : CM (complete main)
Format settings, Endianness : Big
Codec ID : A_AC3
Duration : 2h 12mn
Bit rate mode : Constant
Bit rate : 640 Kbps
Channel count : 6 channels
Channel positions : Front: L C R, Side: L R, LFE
Sampling rate : 48.0 KHz
Bit depth : 16 bits
Compression mode : Lossy
Stream size : 605 MiB (5%)
Title : Двухголосый, телеканал ОРТ
Language : Russian
Default : No
Forced : No

Audio #3
ID : 4
Format : AC-3
Format/Info : Audio Coding 3
Mode extension : CM (complete main)
Format settings, Endianness : Big
Codec ID : A_AC3
Duration : 2h 12mn
Bit rate mode : Constant
Bit rate : 640 Kbps
Channel count : 6 channels
Channel positions : Front: L C R, Side: L R, LFE
Sampling rate : 48.0 KHz
Bit depth : 16 bits
Compression mode : Lossy
Stream size : 605 MiB (5%)
Title : Оригинал, Английский
Language : English
Default : No
Forced : No

Text #1
ID : 5
Format : UTF-8
Codec ID : S_TEXT/UTF8
Codec ID/Info : UTF-8 Plain Text
Language : Russian
Default : No
Forced : No

Text #2
ID : 6
Format : UTF-8
Codec ID : S_TEXT/UTF8
Codec ID/Info : UTF-8 Plain Text
Language : English
Default : No
Forced : No

Menu
00:00:00.000 : en:
00:02:21.975 : en:
00:03:58.363 : en:
00:05:12.520 : en:
00:06:10.411 : en:
00:07:51.512 : en:
00:11:58.718 : en:
00:13:18.506 : en:
00:14:03.675 : en:
00:14:18.941 : en:
00:16:58.893 : en:
00:21:01.051 : en:
00:22:42.570 : en:
00:24:53.826 : en:
00:26:50.900 : en:
00:28:50.812 : en:
00:33:25.045 : en:
00:34:09.214 : en:
00:35:27.000 : en:
00:38:19.255 : en:
00:42:34.177 : en:
00:43:24.727 : en:
00:45:19.007 : en:
00:48:00.002 : en:
00:52:39.614 : en:
00:56:49.739 : en:
00:57:55.806 : en:
00:58:39.307 : en:
01:00:50.063 : en:
01:01:39.446 : en:
01:04:18.979 : en:
01:07:44.686 : en:
01:12:58.874 : en:
01:15:19.640 : en:
01:19:15.334 : en:
01:26:11.375 : en:
01:28:50.367 : en:
01:29:27.821 : en:
01:30:07.527 : en:
01:35:44.030 : en:
01:38:58.558 : en:
01:41:27.331 : en:
01:45:25.194 : en:
01:47:45.584 : en:
01:48:11.527 : en:
01:49:50.542 : en:
01:51:09.997 : en:
01:54:16.600 : en:
01:58:23.346 : en:
01:59:44.844 : en:
02:02:01.189 : en:
02:03:49.422 : en:
02:05:13.715 : en:
02:06:28.706 : en:
02:07:19.632 : en:[/spoiler][spoiler="Крепкий орешек 2 / Die Hard 2 (1990) BDRip 1080p"]

Информация о фильме
Название: Крепкий орешек 2
Оригинальное название: Die Hard 2
Год выхода: 1990
Жанр: боевик, триллер
Режиссер: Ренни Харлин
В ролях: Брюс Уиллис, Бонни Беделиа, Уильям Сэдлер, Франко Неро, Уильям Этертон, Деннис Франц, Джон Эймос, Арт Эванс, Фред Долтон Томпсон, Реджинальд ВелДжонсон

О фильме:
В канун Рождества группа террористов захватила международный аэропорт и теперь удерживает тысячи путешествующих в качестве заложников. Террористы — банда отступников из первоклассно вооруженных коммандос, возглавляемых одержимым жестокостью офицером. Их цель — спасти наркобарона.

Банда подготовлена ко всевозможным случайностям, за исключением одной — встречи с Джоном Макклейном. Брюс Уиллис возвращается в роли супергероя-полицейского, который сражается не только с террористами, но и с некомпетентным шефом полиции аэропорта, тупоголовым начальником антитеррористического подразделения и страшным снежным бураном.

Заложники мечутся, смертельно испуганные и растерянные. А Джон Макклейн ведет схватку и со временем. Его жена находится в одном из самолетов, кружащих над аэропортом. А топливо — на пределе…



Страна: США
Студия: 20th Century Fox Film Corporation, Gordon Company, Silver Pictures
Продолжительность: 02:03:23
Перевод: Дублированный |Blu-ray CEE| + Профессиональный (двухголосый, закадровый) телеканал ОРТ + Оригинал

Файл
Кодек: x264
Качество: BDRip 1080p (источник: HDCLUB / Blu-ray Remux / 1080p)
Видео: 1920х812 (2.35:1), 11435 Kbps, 23.976 fps, 0.306 bit/pixel
Аудио #1: 48.0 kHz, AC3 Dolby Digital, 3/2 (L,C,R,l,r) + LFE ch, 640 kbps [Дубляж, Blu-ray CEE]
Аудио #2: 48.0 kHz, AC3 Dolby Digital, 3/2 (L,C,R,l,r) + LFE ch, 640 kbps [Двухголосый, телеканал ОРТ]
Аудио #3: 48.0 kHz, AC3 Dolby Digital, 3/2 (L,C,R,l,r) + LFE ch, 640 kbps [Оригинал, Английский]
Аудио #4: 48.0 kHz, AC3 Dolby Digital, 3/2 (L,C,R,l,r) + LFE ch, 640 kbps [Многоголосый, Киномания] Отдельно на disk.yandex.ru
Аудио #5: 48.0 kHz, AC3 Dolby Digital, 3/2 (L,C,R,l,r) + LFE ch, 640 kbps [Авторский, А. Гаврилов] Отдельно на disk.yandex.ru
Аудио #6: 48.0 kHz, AC3 Dolby Digital, 3/2 (L,C,R,l,r) + LFE ch, 640 kbps [Авторский, Ю. Живов] Отдельно на disk.yandex.ru
Субтитры: Русские, английские

Семпл



x264 / MediaInfox264 [info]: frame I:1182 Avg QP:15.26 size:163738
x264 [info]: frame P:35686 Avg QP:17.37 size: 92002
x264 [info]: frame B:140627 Avg QP:19.22 size: 50497


General
Unique ID : 248210958442588484741185030016159514963 (0xBABBB115CE02705B95BBEF3408ED0153)
Complete name : E:Die.Hard.Quadrilogy.1988-2007.x264.BDRip.1080pDie.Hard.2.1990.x264.BDRip.1080p.mkv
Format : Matroska
Format version : Version 2
File size : 11.5 GiB
Duration : 2h 3mn
Overall bit rate : 13.4 Mbps
Encoded date : UTC 2013-12-17 17:39:56
Writing application : mkvmerge v5.8.0 ('No Sleep / Pillow') built on Sep 2 2012 15:37:04
Writing library : libebml v1.2.3 + libmatroska v1.3.0

Video
ID : 1
Format : AVC
Format/Info : Advanced Video Codec
Format profile : High@L4.1
Format settings, CABAC : Yes
Format settings, ReFrames : 5 frames
Codec ID : V_MPEG4/ISO/AVC
Duration : 2h 3mn
Bit rate : 11.4 Mbps
Width : 1 920 pixels
Height : 812 pixels
Display aspect ratio : 2.35:1
Frame rate mode : Constant
Frame rate : 23.976 fps
Color space : YUV
Chroma subsampling : 4:2:0
Bit depth : 8 bits
Scan type : Progressive
Bits/(Pixel*Frame) : 0.306
Stream size : 9.62 GiB (84%)
Writing library : x264 core 140 r2377 1ca7bb9
Encoding settings : cabac=1 / ref=5 / deblock=1:-3:-3 / analyse=0x3:0x133 / me=tesa / subme=11 / psy=1 / psy_rd=1.00:0.05 / mixed_ref=1 / me_range=32 / chroma_me=1 / trellis=2 / 8x8dct=1 / cqm=0 / deadzone=21,11 / fast_pskip=0 / chroma_qp_offset=-3 / threads=12 / lookahead_threads=2 / sliced_threads=0 / nr=0 / decimate=0 / interlaced=0 / bluray_compat=0 / constrained_intra=0 / bframes=8 / b_pyramid=2 / b_adapt=2 / b_bias=0 / direct=3 / weightb=0 / open_gop=0 / weightp=2 / keyint=240 / keyint_min=23 / scenecut=40 / intra_refresh=0 / rc=2pass / mbtree=0 / bitrate=11435 / ratetol=1.0 / qcomp=0.60 / qpmin=0 / qpmax=69 / qpstep=4 / cplxblur=20.0 / qblur=0.5 / ip_ratio=1.40 / pb_ratio=1.30 / aq=1:1.00
Language : English
Default : Yes
Forced : No

Audio #1
ID : 2
Format : AC-3
Format/Info : Audio Coding 3
Mode extension : CM (complete main)
Format settings, Endianness : Big
Codec ID : A_AC3
Duration : 2h 3mn
Bit rate mode : Constant
Bit rate : 640 Kbps
Channel count : 6 channels
Channel positions : Front: L C R, Side: L R, LFE
Sampling rate : 48.0 KHz
Bit depth : 16 bits
Compression mode : Lossy
Stream size : 565 MiB (5%)
Title : Дубляж, Blu-ray CEE
Language : Russian
Default : Yes
Forced : No

Audio #2
ID : 3
Format : AC-3
Format/Info : Audio Coding 3
Mode extension : CM (complete main)
Format settings, Endianness : Big
Codec ID : A_AC3
Duration : 2h 3mn
Bit rate mode : Constant
Bit rate : 640 Kbps
Channel count : 6 channels
Channel positions : Front: L C R, Side: L R, LFE
Sampling rate : 48.0 KHz
Bit depth : 16 bits
Compression mode : Lossy
Stream size : 565 MiB (5%)
Title : Двухголосый, телеканал ОРТ
Language : Russian
Default : No
Forced : No

Audio #3
ID : 4
Format : AC-3
Format/Info : Audio Coding 3
Mode extension : CM (complete main)
Format settings, Endianness : Big
Codec ID : A_AC3
Duration : 2h 3mn
Bit rate mode : Constant
Bit rate : 640 Kbps
Channel count : 6 channels
Channel positions : Front: L C R, Side: L R, LFE
Sampling rate : 48.0 KHz
Bit depth : 16 bits
Compression mode : Lossy
Stream size : 565 MiB (5%)
Title : Оригинал, Английский
Language : English
Default : No
Forced : No

Text #1
ID : 5
Format : UTF-8
Codec ID : S_TEXT/UTF8
Codec ID/Info : UTF-8 Plain Text
Language : Russian
Default : No
Forced : No

Text #2
ID : 6
Format : UTF-8
Codec ID : S_TEXT/UTF8
Codec ID/Info : UTF-8 Plain Text
Language : English
Default : No
Forced : No

Menu
00:00:00.000 : en:
00:06:14.582 : en:
00:08:14.535 : en:
00:12:15.693 : en:
00:16:21.438 : en:
00:18:32.694 : en:
00:19:32.128 : en:
00:23:22.734 : en:
00:25:09.925 : en:
00:27:03.246 : en:
00:29:48.077 : en:
00:36:46.245 : en:
00:39:14.768 : en:
00:40:02.775 : en:
00:43:37.156 : en:
00:48:58.477 : en:
00:49:57.035 : en:
00:52:30.730 : en:
00:58:29.671 : en:
01:01:43.950 : en:
01:02:39.921 : en:
01:04:47.383 : en:
01:06:38.411 : en:
01:08:12.254 : en:
01:09:54.439 : en:
01:10:59.755 : en:
01:16:23.245 : en:
01:21:56.369 : en:
01:23:27.210 : en:
01:25:40.885 : en:
01:30:53.990 : en:
01:33:17.633 : en:
01:34:23.157 : en:
01:41:09.688 : en:
01:42:31.854 : en:
01:44:53.161 : en:
01:46:36.430 : en:
01:49:13.255 : en:
01:53:34.432 : en:
01:56:08.711 : en:[/spoiler][spoiler="Крепкий орешек 3: Возмездие / Die Hard: With a Vengeance (1995) BDRip 1080p"]

Информация о фильме
Название: Крепкий орешек 3: Возмездие
Оригинальное название: Die Hard: With a Vengeance
Год выхода: 1995
Жанр: Боевик, триллер, криминал
Режиссер: Джон МакТирнан
В ролях: Брюс Уиллис, Сэмюэл Л. Джексон, Джереми Айронс, Ларри Бриггман, Грэм Грин, Коллин Кэмп, Энтони Пек, Николас Уаймэн, Сэм Филлипс, Кевин Чэмберлин

О фильме:
На улицах Нью-Йорка офицер полиции Джон МакКлейн видел все, что только возможно. На этот раз для того, чтобы отомстить МакКлейну, террорист Саймон, виртуозно устраивающий взрывы, заставляет героя — полицейского играть в смертельную игру. Ставка — город Нью-Йорк.

МакКлейн вынужден метаться по городу, следуя телефонным указаниям Саймона, готового разнести пол — Нью-Йорка за малейшее отклонение от его требований. И в то время, как вся полиция города занята поисками террористов, преступники похищают золотой запас Национального банка США.

У МакКлейна бывали неудачные деньки за годы службы в полиции, но сегодня у него, похоже, будет исключительно скверный день…



Страна: США
Студия: 20th Century Fox Film Corporation, Cinergi Pictures Entertainment Inc.
Продолжительность: 02:08:32
Перевод: Профессиональный (многоголосый, закадровый) телеканал ОРТ + Оригинал

Файл
Кодек: x264
Качество: BDRip 1080p (источник: HDCLUB / Blu-ray Remux / 1080p)
Видео: 1920х818 (2.35:1), 11534 Kbps, 23.976 fps, 0.306 bit/pixel
Аудио #1: 48.0 kHz, AC3 Dolby Digital, 3/2 (L,C,R,l,r) + LFE ch, 640 kbps [Многоголосый, телеканал ОРТ]
Аудио #2: 48.0 kHz, AC3 Dolby Digital, 3/2 (L,C,R,l,r) + LFE ch, 640 kbps [Оригинал, Английский]
Аудио #3: 48.0 kHz, AC3 Dolby Digital, 3/2 (L,C,R,l,r) + LFE ch, 640 kbps [Многоголосый, Киномания] Отдельно на disk.yandex.ru
Аудио #4: 48.0 kHz, AC3 Dolby Digital, 3/2 (L,C,R,l,r) + LFE ch, 640 kbps [Авторский, А. Гаврилов] Отдельно на disk.yandex.ru
Аудио #5: 48.0 kHz, AC3 Dolby Digital, 3/2 (L,C,R,l,r) + LFE ch, 640 kbps [Авторский, Ю. Живов] Отдельно на disk.yandex.ru
Субтитры: Русские, английские

Семпл



x264 / MediaInfox264 [info]: frame I:1008 Avg QP:18.75 size:169688
x264 [info]: frame P:39333 Avg QP:21.48 size: 92480
x264 [info]: frame B:144555 Avg QP:23.37 size: 50536


General
Unique ID : 244380986326092621280771951950460521497 (0xB7DA10E178DA5FEBB600ECF96A5E8C19)
Complete name : E:Die.Hard.Quadrilogy.1988-2007.x264.BDRip.1080pDie.Hard.With.a.Vengeance.1995.x264.BDRip.1080p.mkv
Format : Matroska
Format version : Version 2
File size : 11.5 GiB
Duration : 2h 8mn
Overall bit rate : 12.8 Mbps
Encoded date : UTC 2013-12-15 13:20:35
Writing application : mkvmerge v5.8.0 ('No Sleep / Pillow') built on Sep 2 2012 15:37:04
Writing library : libebml v1.2.3 + libmatroska v1.3.0

Video
ID : 1
Format : AVC
Format/Info : Advanced Video Codec
Format profile : High@L4.1
Format settings, CABAC : Yes
Format settings, ReFrames : 5 frames
Codec ID : V_MPEG4/ISO/AVC
Duration : 2h 8mn
Bit rate : 11.5 Mbps
Width : 1 920 pixels
Height : 818 pixels
Display aspect ratio : 2.35:1
Frame rate mode : Constant
Frame rate : 23.976 fps
Color space : YUV
Chroma subsampling : 4:2:0
Bit depth : 8 bits
Scan type : Progressive
Bits/(Pixel*Frame) : 0.306
Stream size : 10.1 GiB (88%)
Writing library : x264 core 140 r2377 1ca7bb9
Encoding settings : cabac=1 / ref=5 / deblock=1:-2:-2 / analyse=0x3:0x133 / me=tesa / subme=11 / psy=1 / psy_rd=1.00:0.00 / mixed_ref=1 / me_range=32 / chroma_me=1 / trellis=2 / 8x8dct=1 / cqm=0 / deadzone=21,11 / fast_pskip=0 / chroma_qp_offset=-2 / threads=12 / lookahead_threads=3 / sliced_threads=0 / nr=0 / decimate=0 / interlaced=0 / bluray_compat=0 / constrained_intra=0 / bframes=10 / b_pyramid=2 / b_adapt=2 / b_bias=0 / direct=3 / weightb=0 / open_gop=0 / weightp=2 / keyint=240 / keyint_min=23 / scenecut=40 / intra_refresh=0 / rc=2pass / mbtree=0 / bitrate=11534 / ratetol=1.0 / qcomp=0.60 / qpmin=0 / qpmax=69 / qpstep=4 / cplxblur=20.0 / qblur=0.5 / ip_ratio=1.40 / pb_ratio=1.30 / aq=1:1.00
Language : English
Default : Yes
Forced : No

Audio #1
ID : 2
Format : AC-3
Format/Info : Audio Coding 3
Mode extension : CM (complete main)
Format settings, Endianness : Big
Codec ID : A_AC3
Duration : 2h 8mn
Bit rate mode : Constant
Bit rate : 640 Kbps
Channel count : 6 channels
Channel positions : Front: L C R, Side: L R, LFE
Sampling rate : 48.0 KHz
Bit depth : 16 bits
Compression mode : Lossy
Stream size : 588 MiB (5%)
Title : Многоголосый, телеканал ОРТ
Language : Russian
Default : Yes
Forced : No

Audio #2
ID : 3
Format : AC-3
Format/Info : Audio Coding 3
Mode extension : CM (complete main)
Format settings, Endianness : Big
Codec ID : A_AC3
Duration : 2h 8mn
Bit rate mode : Constant
Bit rate : 640 Kbps
Channel count : 6 channels
Channel positions : Front: L C R, Side: L R, LFE
Sampling rate : 48.0 KHz
Bit depth : 16 bits
Compression mode : Lossy
Stream size : 588 MiB (5%)
Title : Оригинал, Английский
Language : English
Default : No
Forced : No

Text #1
ID : 4
Format : UTF-8
Codec ID : S_TEXT/UTF8
Codec ID/Info : UTF-8 Plain Text
Language : Russian
Default : No
Forced : No

Text #2
ID : 5
Format : UTF-8
Codec ID : S_TEXT/UTF8
Codec ID/Info : UTF-8 Plain Text
Language : English
Default : No
Forced : No

Menu
00:00:00.000 : en:
00:00:53.845 : en:
00:01:53.989 : en:
00:03:50.981 : en:
00:07:58.144 : en:
00:09:09.465 : en:
00:13:38.151 : en:
00:16:53.596 : en:
00:22:55.374 : en:
00:27:32.525 : en:
00:32:39.498 : en:
00:37:31.583 : en:
00:40:18.248 : en:
00:43:39.033 : en:
00:48:48.300 : en:
00:52:04.330 : en:
00:52:38.739 : en:
00:56:09.825 : en:
00:58:38.932 : en:
01:02:57.148 : en:
01:04:43.630 : en:
01:07:44.811 : en:
01:11:36.375 : en:
01:17:05.120 : en:
01:20:17.646 : en:
01:21:17.497 : en:
01:24:42.661 : en:
01:27:43.300 : en:
01:28:20.670 : en:
01:31:47.711 : en:
01:32:35.508 : en:
01:34:18.862 : en:
01:39:24.417 : en:
01:40:45.247 : en:
01:43:52.935 : en:
01:47:53.550 : en:
01:53:03.527 : en:
01:55:59.452 : en:
01:59:27.202 : en:
02:00:27.303 : en:[/spoiler][spoiler="Крепкий орешек 4.0 / Live Free or Die Hard / Die Hard 4.0 (2007) BDRip 1080p"]

Информация о фильме
Название: Крепкий орешек 4.0
Оригинальное название: Live Free or Die Hard / Die Hard 4.0
Год выхода: 2007
Жанр: Боевик, триллер, криминал
Режиссер: Лен Уайзман
В ролях: Брюс Уиллис, Джастин Лонг, Тимоти Олифант, Мэгги Кью, Клифф Кёртис, Джонатан Садовский, Мэри Элизабет Уинстэд, Кевин Смит, Эндрю Фридман, Сирил Раффаэлли

О фильме:
Мир опять на краю гибели из-за новой террористической угрозы. В этот раз в «заложниках» оказывается всемирная компьютерная сеть. Правительство и спецслужбы бессильны, все готово погрузиться в хаос. Но на борьбу с нависшей над миром опасностью выходит наш старый герой Джон МакКлейн со своей неразлучной подругой «Береттой».

Он давно в отставке, но когда на карту поставлена жизнь членов его семьи, он не будет стоять в стороне и бросит вызов террористам. Однако в этот раз ему уже не справиться без молодого, но очень талантливого помощника.


Страна: США, Великобритания
Студия: 20th Century Fox Film Corporation, Wintergreen Productions, Cheyenne Enterprises
Продолжительность: 02:08:42
Перевод: Дублированный |Blu-ray CEE| + Оригинал

Файл
Кодек: x264
Качество: BDRip 1080p (источник: HDCLUB / Blu-ray Remux / 1080p)
Видео: 1920х800 (2.40:1), 11519 Kbps, 23.976 fps, 0.313 bit/pixel
Аудио #1: 48.0 kHz, AC3 Dolby Digital, 3/2 (L,C,R,l,r) + LFE ch, 640 kbps [Дубляж, Blu-ray CEE]
Аудио #2: 48.0 kHz, AC3 Dolby Digital, 3/2 (L,C,R,l,r) + LFE ch, 640 kbps [Оригинал, Английский]
Аудио #3: 48.0 kHz, AC3 Dolby Digital, 3/2 (L,C,R,l,r) + LFE ch, 640 kbps [Многоголосый, Киномания] Отдельно на disk.yandex.ru
Аудио #4: 48.0 kHz, AC3 Dolby Digital, 3/2 (L,C,R,l,r) + LFE ch, 640 kbps [Авторский, А. Гаврилов] Отдельно на disk.yandex.ru
Аудио #5: 48.0 kHz, AC3 Dolby Digital, 3/2 (L,C,R,l,r) + LFE ch, 640 kbps [Авторский, Ю. Живов] Отдельно на disk.yandex.ru
Субтитры: Русские, английские

Семпл



x264 / MediaInfox264 [info]: frame I:1626 Avg QP:16.29 size:191307
x264 [info]: frame P:45760 Avg QP:19.39 size: 89033
x264 [info]: frame B:137760 Avg QP:21.35 size: 48875


General
Unique ID : 216474131121305909473313329748391709814 (0xA2DB66B0885640FBBC3E0E0FFD574C76)
Complete name : E:Die.Hard.Quadrilogy.1988-2007.x264.BDRip.1080pDie.Hard.4.0.2007.x264.BDRip.1080p.mkv
Format : Matroska
Format version : Version 2
File size : 11.5 GiB
Duration : 2h 8mn
Overall bit rate : 12.8 Mbps
Encoded date : UTC 2013-12-15 15:02:04
Writing application : mkvmerge v5.8.0 ('No Sleep / Pillow') built on Sep 2 2012 15:37:04
Writing library : libebml v1.2.3 + libmatroska v1.3.0

Video
ID : 1
Format : AVC
Format/Info : Advanced Video Codec
Format profile : High@L4.1
Format settings, CABAC : Yes
Format settings, ReFrames : 5 frames
Codec ID : V_MPEG4/ISO/AVC
Duration : 2h 8mn
Bit rate : 11.5 Mbps
Width : 1 920 pixels
Height : 800 pixels
Display aspect ratio : 2.40:1
Frame rate mode : Constant
Frame rate : 23.976 fps
Color space : YUV
Chroma subsampling : 4:2:0
Bit depth : 8 bits
Scan type : Progressive
Bits/(Pixel*Frame) : 0.313
Stream size : 10.1 GiB (88%)
Writing library : x264 core 140 r2377 1ca7bb9
Encoding settings : cabac=1 / ref=5 / deblock=1:-2:-2 / analyse=0x3:0x133 / me=tesa / subme=11 / psy=1 / psy_rd=1.00:0.00 / mixed_ref=1 / me_range=32 / chroma_me=1 / trellis=2 / 8x8dct=1 / cqm=0 / deadzone=21,11 / fast_pskip=0 / chroma_qp_offset=-2 / threads=12 / lookahead_threads=3 / sliced_threads=0 / nr=0 / decimate=0 / interlaced=0 / bluray_compat=0 / constrained_intra=0 / bframes=10 / b_pyramid=2 / b_adapt=2 / b_bias=0 / direct=3 / weightb=0 / open_gop=0 / weightp=2 / keyint=240 / keyint_min=23 / scenecut=40 / intra_refresh=0 / rc=2pass / mbtree=0 / bitrate=11519 / ratetol=1.0 / qcomp=0.60 / qpmin=0 / qpmax=69 / qpstep=4 / cplxblur=20.0 / qblur=0.5 / ip_ratio=1.40 / pb_ratio=1.30 / aq=1:1.00
Language : English
Default : Yes
Forced : No

Audio #1
ID : 2
Format : AC-3
Format/Info : Audio Coding 3
Mode extension : CM (complete main)
Format settings, Endianness : Big
Codec ID : A_AC3
Duration : 2h 8mn
Bit rate mode : Constant
Bit rate : 640 Kbps
Channel count : 6 channels
Channel positions : Front: L C R, Side: L R, LFE
Sampling rate : 48.0 KHz
Bit depth : 16 bits
Compression mode : Lossy
Stream size : 589 MiB (5%)
Title : Дубляж, Blu-ray CEE
Language : Russian
Default : Yes
Forced : No

Audio #2
ID : 3
Format : AC-3
Format/Info : Audio Coding 3
Mode extension : CM (complete main)
Format settings, Endianness : Big
Codec ID : A_AC3
Duration : 2h 8mn
Bit rate mode : Constant
Bit rate : 640 Kbps
Channel count : 6 channels
Channel positions : Front: L C R, Side: L R, LFE
Sampling rate : 48.0 KHz
Bit depth : 16 bits
Compression mode : Lossy
Stream size : 589 MiB (5%)
Title : Оригинал, Английский
Language : English
Default : No
Forced : No

Text #1
ID : 4
Format : UTF-8
Codec ID : S_TEXT/UTF8
Codec ID/Info : UTF-8 Plain Text
Language : Russian
Default : No
Forced : No

Text #2
ID : 5
Format : UTF-8
Codec ID : S_TEXT/UTF8
Codec ID/Info : UTF-8 Plain Text
Language : English
Default : No
Forced : No

Menu
00:00:00.000 : en:
00:03:53.150 : en:
00:06:18.544 : en:
00:07:49.135 : en:
00:11:31.523 : en:
00:15:16.082 : en:
00:17:57.493 : en:
00:20:47.496 : en:
00:25:55.888 : en:
00:27:30.107 : en:
00:30:02.884 : en:
00:31:27.719 : en:
00:33:47.067 : en:
00:38:16.294 : en:
00:41:04.253 : en:
00:45:42.864 : en:
00:52:16.133 : en:
00:55:26.573 : en:
00:58:02.312 : en:
01:00:47.060 : en:
01:02:29.871 : en:
01:08:15.508 : en:
01:12:31.264 : en:
01:17:01.200 : en:
01:18:28.162 : en:
01:21:30.052 : en:
01:25:52.064 : en:
01:32:45.100 : en:
01:36:50.013 : en:
01:39:47.523 : en:
01:45:02.254 : en:
01:46:22.459 : en:
01:51:21.174 : en:
01:56:38.700 : en:
01:58:12.544 : en:
02:01:45.965 : en:[/spoiler]

Как скачать!

  • Похожие темы
    Ответы
    Просмотры
    Последнее сообщение

Вернуться в «Фильмы HD»

Кто сейчас на конференции

Сейчас этот форум просматривают: нет зарегистрированных пользователей и 10 гостей