загрузка...

Тайна печати дракона (2019) WEBRip-AVC

Фильмы в формате AVI и XvID
Сообщение
Автор
Аватара пользователя
admin
Администратор
Администратор
Сообщения: 9001
Зарегистрирован: 13 дек 2013, 01:15
Благодарил (а): 24 раза
Поблагодарили: 1 раз
Контактная информация:

Тайна печати дракона (2019) WEBRip-AVC

#1 Сообщение admin » 04 ноя 2019, 15:01

Год выхода: 2019
Жанр: Приключения
Страна: Россия, Китай
Переводы: Дублированный
Продолжительность: 01:54:27
Режиссер: Олег Степченко
В ролях: Джейсон Флеминг, Арнольд Шварценеггер, Чарльз Дэнс, Джеки Чан, Яо Синтун, Кристофер Фэйрбэнк, Рутгер Хауэр, Мартин Клебба, Юрий Колокольников, Павел Воля и др.

О фильме: Английский путешественник Джонатан Грин получает от Петра I заказ на изготовление карт Дальнего Востока России. Ему вновь предстоит долгий путь, полный невероятных приключений, который приведет его в Китай. Картограф столкнется с массой головокружительных открытий, неожиданных встреч с диковинными существами, китайскими принцессами, мастерами смертоносных боевых искусств и самим Лун-Ван, Царем всех драконов. Что может быть опаснее, чем посмотреть в глаза Вию? Разве что встретиться с ним вновь. Что на этот раз окажется сильнее — непоколебимый скептицизм ученого или древняя черная магия, уже давно захватившая власть в Восточных землях?



Формат: MKV
Качество: WEBRip-AVC
Видео: MPEG-4 AVC, 720x404 (16:9), 25.000 fps, 1620 Kbps, 0.223 bit/pixel
Аудио: Russian: 48 kHz, AC3, 2/0 (L,R), ~192 kbps avg
Субтитры: Русские (hardsub, full)

General
Unique ID : 197199504461532460471089840582300216092 (0x945B3E39941BEF3E91FFEE61F6E72B1C)
Complete name : F:Tajna.Pechati.Drakona.2019.AVC.ExKinoRay.mkv
Format : Matroska
Format version : Version 2
File size : 1.45 GiB
Duration : 1 h 54 min
Overall bit rate : 1 812 kb/s
Movie name : Тайна печати дракона (2019) from ExKinoRay
Encoded date : UTC 2019-11-04 01:06:43
Writing application : mkvmerge v5.6.0 ('Kenya Kane') built on May 27 2012 16:44:04
Writing library : libebml v1.2.3 + libmatroska v1.3.0

Video
ID : 1
Format : AVC
Format/Info : Advanced Video Codec
Format profile : High@L4.1
Format settings, CABAC : Yes
Format settings, ReFrames : 11 frames
Codec ID : V_MPEG4/ISO/AVC
Duration : 1 h 54 min
Bit rate : 1 620 kb/s
Width : 720 pixels
Height : 404 pixels
Display aspect ratio : 16:9
Frame rate mode : Constant
Frame rate : 25.000 FPS
Color space : YUV
Chroma subsampling : 4:2:0
Bit depth : 8 bits
Scan type : Progressive
Bits/(Pixel*Frame) : 0.223
Stream size : 1.27 GiB (87%)
Title : Enigma
Writing library : x264 core 152 r2851 ba24899
Encoding settings : cabac=1 / ref=11 / deblock=1:-2:-2 / analyse=0x3:0x113 / me=umh / subme=10 / psy=1 / psy_rd=1.05:0.14 / mixed_ref=1 / me_range=32 / chroma_me=1 / trellis=2 / 8x8dct=1 / cqm=0 / deadzone=21,11 / fast_pskip=0 / chroma_qp_offset=-3 / threads=12 / lookahead_threads=3 / sliced_threads=0 / nr=0 / decimate=0 / interlaced=0 / bluray_compat=0 / constrained_intra=0 / bframes=10 / b_pyramid=2 / b_adapt=2 / b_bias=0 / direct=3 / weightb=1 / open_gop=0 / weightp=2 / keyint=240 / keyint_min=24 / scenecut=40 / intra_refresh=0 / rc=2pass / mbtree=0 / bitrate=1620 / ratetol=1.0 / qcomp=0.60 / qpmin=0 / qpmax=51 / qpstep=4 / cplxblur=20.0 / qblur=0.5 / ip_ratio=1.40 / pb_ratio=1.30 / aq=1:1.00
Default : Yes
Forced : No
Color range : Limited
Color primaries : BT.709
Transfer characteristics : BT.709
Matrix coefficients : BT.709

Audio
ID : 2
Format : AC-3
Format/Info : Audio Coding 3
Mode extension : CM (complete main)
Format settings, Endianness : Big
Codec ID : A_AC3
Duration : 1 h 54 min
Bit rate mode : Constant
Bit rate : 192 kb/s
Channel(s) : 2 channels
Channel positions : Front: L R
Sampling rate : 48.0 kHz
Frame rate : 31.250 FPS (1536 spf)
Compression mode : Lossy
Stream size : 157 MiB (11%)
Title : Dub
Language : Russian
Default : Yes
Forced : No

 ! Сообщение из: admin
Удалено по просьбе правообладателя.

Как скачать!

  • Похожие темы
    Ответы
    Просмотры
    Последнее сообщение

Вернуться в «Новинки фильмов»

Кто сейчас на конференции

Сейчас этот форум просматривают: Yandex [Bot] и 3 гостя