загрузка...

Трасса смерти (Серии 1-10 (10)) [2017, HDTVRip (AVC)]

Русские и стран ближнего зарубежья сериалы,на русском языке.
Правила форума
Скачать торрент русские сериалы
Сообщение
Автор
Торрент [ Статус: Проверен ] Скачать Сидеров Личеров Размер
Trassa_smerti.2017.HDTVRip.AVC.Files-x.torrent
Подробнее
Скачать торрент Скачать через магнет ссылку 164 195 7.32 ГБ
Аватара пользователя
Чертёнок
Администратор
Администратор
Сообщения: 394
Возраст: 52
Зарегистрирован: 17 авг 2014, 15:33
Благодарил (а): 1 раз
Поблагодарили: 7 раз
Контактная информация:

Трасса смерти (Серии 1-10 (10)) [2017, HDTVRip (AVC)]

#1 Сообщение Чертёнок » 18 апр 2017, 04:07



Название: Трасса смерти
Год выхода: 2017
Жанр: Детектив
Режиссер: Денис Нейманд
В ролях: Сергей Маковецкий, Андрей Мерзликин, Агния Кузнецова, Елизавета Лотова, Маргарита Дьяченкова, Александр Лепихов, Эдуард Айткулов, Дмитрий Брауэр, Александр Лучинин, Артём Семакин, Александр Тютин, Александр Сергеев, Дмитрий Смирнов, Денис Дружинин, Тина Тарусина, Сейдулла Молдаханов, Дарья Кудрявцева, Наталия Лесниковская, Вячеслав Дробинков


«Трасса смерти» о событиях, произошедших на трассе М4 «Дон» в 2014 году. Главные роли исполняют Сергей Маковецкий, Андрей Мерзликин, Агния Кузнецова и другие известные артисты.
На трассе федерального значения банда дорожных убийц вершит террор. Преступники разбрасывают по асфальту шипы из гвоздей, останавливая машины, расстреливают автомобилистов и таинственным образом исчезают. Журналисты называют их «Банда GTA» по аналогии с известной компьютерной игрой. Дело осложняется тем, что у нападавших нет очевидного мотива — деньги и ценности погибших остаются нетронутыми.
Дело поручено следователям Звонарёву (Андрей Мерзликин) из ОВД и Мельникову (Сергей Маковецкий) из отдела СК по раскрытию особо тяжких преступлений. В прошлом они уже работали вместе, и между ними давний неразрешенный конфликт. У них разные методы, но одна цель — установить личности преступников и предотвратить новые трагедии.
Собственное расследование страшных событий начинает интернет-блогер и бывший редактор криминальной хроники Мария Корсакова (Агния Кузнецова). Ею движут личные причины — на автомобильной магистрали был расстрелян ее родной брат. Только объединив силы и найдя общий язык, Корсакова, Мельников и Звонарёв смогут остановить череду бессмысленной жестокости, происходящей на автодороге.



Страна: Россия, Мотор Фильм Студия
Продолжительность: 10х ~ 00:48:00
Язык: Русский


Файл
Формат: MKV
Кодек: MPEG-4 AVC
Качество: HDTVRip (AVC)
Видео: 1024x576 ~ 2000 Кбит/с
Звук: (MP3, 2 ch, 192 Кбит/c)
Автор рипа:










Общее
Уникальный идентификатор : 234857573326921624150457815983793033183 (0xB0AFEC5E4870A49168415BABD212CFDF)
Полное имя : D:ВидеоТрасса смертиTrassa.smerti.(01.seriya.iz.10).mkv
Формат : Matroska
Версия формата : Version 2
Размер файла : 754 Мбайт
Продолжительность : 48 м.
Общий поток : 2195 Кбит/сек
Программа кодирования : Lavf54.63.104
Библиотека кодирования : Lavf54.63.104

Видео
Идентификатор : 1
Формат : AVC
Формат/Информация : Advanced Video Codec
Профиль формата : High@L3.1
Параметр CABAC формата : Да
Параметр ReFrames формата : 2 кадра
Идентификатор кодека : V_MPEG4/ISO/AVC
Продолжительность : 48 м.
Битрейт : 2000 Кбит/сек
Ширина : 1024 пикселя
Высота : 576 пикселей
Соотношение сторон : 16:9
Режим частоты кадров : Постоянный
Частота кадров : 25,000 кадров/сек
Цветовое пространство : YUV
Субдискретизация насыщенности : 4:2:0
Битовая глубина : 8 бит
Тип развёртки : Прогрессивная
Бит/(Пиксели*Кадры) : 0.136
Размер потока : 673 Мбайт (89%)
Библиотека кодирования : x264 core 129
Настройки программы : cabac=1 / ref=2 / deblock=1:0:0 / analyse=0x3:0x113 / me=hex / subme=6 / psy=1 / psy_rd=1.00:0.00 / mixed_ref=1 / me_range=16 / chroma_me=1 / trellis=0 / 8x8dct=1 / cqm=0 / deadzone=21,11 / fast_pskip=1 / chroma_qp_offset=-2 / threads=4 / lookahead_threads=1 / sliced_threads=0 / nr=0 / decimate=1 / interlaced=0 / bluray_compat=0 / constrained_intra=0 / bframes=0 / weightp=2 / keyint=250 / keyint_min=25 / scenecut=40 / intra_refresh=0 / rc_lookahead=40 / rc=2pass / mbtree=1 / bitrate=2000 / ratetol=1.0 / qcomp=0.60 / qpmin=10 / qpmax=51 / qpstep=4 / cplxblur=20.0 / qblur=0.5 / ip_ratio=1.41 / aq=1:1.00
Default : Да
Forced : Нет

Аудио
Идентификатор : 2
Формат : MPEG Audio
Версия формата : Version 1
Профиль формата : Layer 3
Режим : Joint stereo
Идентификатор кодека : A_MPEG/L3
Идентификатор кодека/Подсказка : MP3
Продолжительность : 48 м.
Вид битрейта : Постоянный
Битрейт : 192 Кбит/сек
Каналы : 2 канала
Частота : 48,0 КГц
Метод сжатия : С потерями
Размер потока : 66,0 Мбайт (9%)
Default : Да
Forced : Нет



Как скачать!

  • Похожие темы
    Ответы
    Просмотры
    Последнее сообщение

Вернуться в «Русские сериалы»

Кто сейчас на конференции

Сейчас этот форум просматривают: нет зарегистрированных пользователей и 2 гостя